BD3D World War Z (2013)
Pokaż wyniki od 1 do 5 z 5
  1. #1
    ..:: Gruba Ryba ::..
    Dołączył
    Oct 2012
    Posty
    2,722
    Dziękował
    248 razy
    Otrzymał
    426 podziękowań

  2. Następujący użytkownicy area-bu.pl podziękowali dla Ralf1022 za ten post:

    ombrenrw (03-10-2013)

  3. #2
    ..:: Best Uploader ::..
    Dołączył
    Mar 2011
    Posty
    3,982
    Dziękował
    1 razy
    Otrzymał
    167 podziękowań

    Odp: World War Z (2013)


  4. #3
    ..:: Uploader ::..
    Dołączył
    Mar 2011
    Posty
    6,289
    Dziękował
    4 razy
    Otrzymał
    750 podziękowań

    Odp: World War Z (2013)









    World War Z 3D (2013) mini-HD.1080p.Over-Under.AC3.BluRay.x264-SONDA |Lektor PL



    General
    Unique ID : 254695355613938362521155479527942469440 (0xBF9C8A8C902CC0318FC5C39F3B9F3740)
    Complete name : F:mkvWORLD_WAR_Z_3D_REMUX_HDCLUBWORLD_WAR_Z_3D_REM UX_HDCLUB.track_1.mkv
    Format : Matroska
    Format version : Version 2
    File size : 3.97 GiB
    Duration : 1h 56mn
    Overall bit rate mode : Variable
    Overall bit rate : 4 900 Kbps
    Movie name : WORLD_WAR_Z_3D_REMUX_HDCLUB.Title0.Bluray3D Rip by Sonda
    Encoded date : UTC 2013-10-02 13:35:59
    Writing application : mkvmerge v5.7.0 ('The Whirlwind') built on Jul 8 2012 20:08:51
    Writing library : libebml v1.2.3 + libmatroska v1.3.0

    Video
    ID : 1
    Format : AVC
    Format/Info : Advanced Video Codec
    Format profile : High@L4.1
    Format settings, CABAC : Yes
    Format settings, ReFrames : 2 frames
    Codec ID : V_MPEG4/ISO/AVC
    Duration : 1h 56mn
    Bit rate mode : Variable
    Bit rate : 4 355 Kbps
    Maximum bit rate : 40.0 Mbps
    Width : 1 920 pixels
    Height : 1 080 pixels
    Display aspect ratio : 16:9 (2.39:1)
    Frame rate mode : Constant
    Frame rate : 23.976 fps
    Color space : YUV
    Chroma subsampling : 4:2:0
    Bit depth : 8 bits
    Scan type : Progressive
    Bits/(Pixel*Frame) : 0.088
    Stream size : 3.53 GiB (89%)
    Title : BluRay 3D Rip by Sonda
    Writing library : x264 core
    Default : Yes
    Forced : No
    Color primaries : BT.709
    Transfer characteristics : BT.709
    Matrix coefficients : BT.709

    Audio
    ID : 2
    Format : AC-3
    Format/Info : Audio Coding 3
    Mode extension : CM (complete main)
    Format settings, Endianness : Big
    Codec ID : A_AC3
    Duration : 1h 56mn
    Bit rate mode : Constant
    Bit rate : 448 Kbps
    Channel(s) : 6 channels
    Channel positions : Front: L C R, Side: L R, LFE
    Sampling rate : 48.0 KHz
    Bit depth : 16 bits
    Compression mode : Lossy
    Stream size : 372 MiB (9%)
    Title : AC3 5.1 Lektor PL
    Language : Polish
    Default : Yes
    Forced : No




  5. #4
    ..:: Uploader ::..
    Dołączył
    Mar 2011
    Posty
    6,289
    Dziękował
    4 razy
    Otrzymał
    750 podziękowań

    Odp: World War Z (2013)









    World War Z 3D (2013) Theatrical Cut.1080p.Half.Over-Under.DTS 5.1.AC3.BluRay.x264-LEON 345]| Lektor i Napisy PL



    Format : Matroska
    Format version : Version 2
    File size : 11.6 GiB
    Duration : 1h 56mn
    Overall bit rate : 14.3 Mbps
    Movie name : World.War.Z.2013.1080p Blu-Ray 3D AVC DTS-HD MA 7.1-BLUEBIRD.Title0.BlurayRip by Leon 345
    Encoded date : UTC 2013-10-05 09:29:03
    Writing application : mkvmerge v5.7.0 ('The Whirlwind') built on Jul 8 2012 20:08:51
    Writing library : libebml v1.2.3 + libmatroska v1.3.0

    Video
    ID : 1
    Format : AVC
    Format/Info : Advanced Video Codec
    Format profile : High@L4.1
    Format settings, CABAC : Yes
    Format settings, ReFrames : 2 frames
    Codec ID : V_MPEG4/ISO/AVC
    Duration : 1h 56mn
    Bit rate : 11.3 Mbps
    Width : 1 920 pixels
    Height : 1 080 pixels
    Display aspect ratio : 16:9 (2.39:1)
    Frame rate mode : Constant
    Frame rate : 23.976 fps
    Color space : YUV
    Chroma subsampling : 4:2:0
    Bit depth : 8 bits
    Scan type : Progressive
    Bits/(Pixel*Frame) : 0.227
    Stream size : 9.14 GiB (79%)
    Title : Rip by Leon 345
    Writing library : x264 core
    Default : Yes
    Forced : No
    Color primaries : BT.709
    Transfer characteristics : BT.709
    Matrix coefficients : BT.709

    Audio #1
    ID : 2
    Format : AC-3
    Format/Info : Audio Coding 3
    Mode extension : CM (complete main)
    Format settings, Endianness : Big
    Codec ID : A_AC3
    Duration : 1h 56mn
    Bit rate mode : Constant
    Bit rate : 640 Kbps
    Channel(s) : 6 channels
    Channel positions : Front: L C R, Side: L R, LFE
    Sampling rate : 48.0 KHz
    Bit depth : 16 bits
    Compression mode : Lossy
    Stream size : 531 MiB (4%)
    Title : AC3 5.1 Lektor PL
    Language : Polish
    Default : Yes
    Forced : Yes

    Audio #2
    ID : 3
    Format : AC-3
    Format/Info : Audio Coding 3
    Mode extension : CM (complete main)
    Format settings, Endianness : Big
    Codec ID : A_AC3
    Duration : 1h 56mn
    Bit rate mode : Constant
    Bit rate : 640 Kbps
    Channel(s) : 6 channels
    Channel positions : Front: L C R, Side: L R, LFE
    Sampling rate : 48.0 KHz
    Bit depth : 16 bits
    Compression mode : Lossy
    Stream size : 531 MiB (4%)
    Title : AC3 5.1 Orginal
    Language : English
    Default : No
    Forced : No

    Audio #3
    ID : 4
    Format : DTS
    Format/Info : Digital Theater Systems
    Mode : 16
    Format settings, Endianness : Big
    Codec ID : A_DTS
    Duration : 1h 56mn
    Bit rate mode : Constant
    Bit rate : 1 509 Kbps
    Channel(s) : 6 channels
    Channel positions : Front: L C R, Side: L R, LFE
    Sampling rate : 48.0 KHz
    Bit depth : 24 bits
    Compression mode : Lossy
    Stream size : 1.22 GiB (11%)
    Title : DTS 5.1 Orginal
    Language : English
    Default : No
    Forced : No

    Text #1
    ID : 5
    Format : UTF-8
    Codec ID : S_TEXT/UTF8
    Codec ID/Info : UTF-8 Plain Text
    Title : Napisy 2D.srt
    Language : Polish
    Default : No
    Forced : No

    Text #2
    ID : 6
    Format : PGS
    Muxing mode : zlib
    Codec ID : S_HDMV/PGS
    Codec ID/Info : The same subtitle format used on BDs/HD-DVDs
    Title : Napisy 3D.sup
    Language : Polish
    Default : No
    Forced : No

    Source [thx]:
    A/V-World War Z 2013 1080p Blu-Ray 3D AVC DTS-HD MA 7.1-BLUEBIRD




  6. #5

 

 

Podobne wątki

  1. World War Z (2013)
    Przez GHunter w dziale Filmy z Lektorem / Dubbingiem
    Odpowiedzi: 41
    Ostatni post / autor: 11-03-2014, 12:15
  2. 720p World War Z (2013)
    Przez Motylek w dziale Filmy HD
    Odpowiedzi: 5
    Ostatni post / autor: 03-10-2013, 20:24
  3. 1080p/1080i World War Z (2013)
    Przez Ralf1022 w dziale Filmy HD
    Odpowiedzi: 2
    Ostatni post / autor: 03-10-2013, 01:43
  4. World War Z (2013)
    Przez noutilus w dziale Filmy z Napisami / Bez Napisów
    Odpowiedzi: 24
    Ostatni post / autor: 30-09-2013, 15:01
  5. SBS World War Z (2013)
    Przez Motylek w dziale Filmy 3D
    Odpowiedzi: 1
    Ostatni post / autor: 09-09-2013, 21:26

Odwiedzający znaleźli tę stronę szukając:

darmowe pobieranie, darmowe filmy, filmy online

Uprawnienia umieszczania postów

  • Nie możesz zakładać nowych tematów
  • Nie możesz pisać wiadomości
  • Nie możesz dodawać załączników
  • Nie możesz edytować swoich postów
vBulletin™, Copyright © 2014 vBulletin Solutions, Inc. All rights reserved.
Spolszczenie: vBHELP.pl - Polski support vBulletin
area-bu.pl © 2014

Darmowe Serwery | Darmowe Filmy | Darmowe Gry | Darmowa Muzyka | WilzoneX | Forum dx-team | Linktube.pl | Filmy z lektorem | Google+

Zabrania się kopiowania elementów grafiki forum.
Na tej stronie nie są umieszczone żadne pliki, a jedynie informacje na ich temat (opis, długość, kodek, typ, rodzaj kompresji, suma kontrolna itp.).
Pamiętaj, że pliki objęte prawem autorskim wolno zgrywać z sieci jedynie, jeżeli posiada się w domu ich oryginalną wersję, a ściągniętą kopię będzie się traktować jako zapasową.

Powrót na górę

1 2 3 4 5 6 7 8 9 10 11 12 13 14 15 16 17 18 19 20 21 22 23 24 25 26 27 28 29 30 31 32 33 34 35 36 37 38 39 40 41 42 43 44 45 46 47 48 49 50 51 52 53 54 55 56 57 58 59 60 61 62 63 64 65 66 67 68 69 70 71 72 73 74 75 76 77 78 79 80 81 82 83 84 85 86 87 88 89 90 91 92 93 94 95 96 97 98 99 100 101 102 103 104 105 106 107 108 109 110 111 112 113 114 115 116 117 118 119 120 121 122 123 124 125 126 127 128 129 130 131 132 133 134 135 136 137 138 139 140 141 142 143 144 145 146 147 148 149 150 151 152 153 154 155 156 157 158 159 160 161 162 163 164 165 166 167 168 169 170 171 172 173 174 175 176 177 178 179 180 181 182 183 184 185 186 187 188 189 190 191 192 193 194 195 196 197 198 199 200 201 202 203 204 205 206 207
/h5